#TITLE:Bingo;
#SUBTITLE:;
#ARTIST:高耀太;
#TITLETRANSLIT:;
#SUBTITLETRANSLIT:;
#ARTISTTRANSLIT:;
#CREDIT:;
#BANNER:bingo-logo.jpg;
#BACKGROUND:bingo.jpg;
#LYRICSPATH:;
#CDTITLE:Lan.png;
#MUSIC:Bingo.mp3;
#OFFSET:-0.040;
#SAMPLESTART:100.000;
#SAMPLELENGTH:12.000;
#SELECTABLE:YES;
#BPMS:0.000=150.000,136.000=75.000,138.000=150.000,166.000=75.000,168.000=150.000,196.000=75.000,198.000=150.000,246.000=75.000,248.000=150.000,260.000=75.000,262.000=150.000,290.000=75.000,292.000=150.000;
#STOPS:;
#BGCHANGES:;
// cache tags:
#FIRSTBEAT:4.000;
#LASTBEAT:354.000;
#SONGFILENAME:Songs/SDO/Bingo/Bingo.sm;
#HASMUSIC:1;
#HASBANNER:1;
#MUSICLENGTH:148.444;
// end cache tags

//---------------dance-single - sky----------------
#NOTES:
     dance-single:
     sky:
     Hard:
     9:
     0.775,1.000,1.000,0.115,0.751,634.000,151.000,17.000,0.000,7.000:

0000
0000
0000
0000
,
1010
0000
0100
0010
0100
0000
1010
0000
0100
0010
0100
0000
,
1001
0000
0000
0000
0000
0000
0010
0010
0010
0010
0000
0010
,
1100
0010
0001
0010
0100
0010
0001
0010
1100
0000
0000
0000
1100
0000
0000
0000
,
0011
0100
1000
0100
0010
0100
1000
0100
0011
0000
0000
0000
0011
0000
0000
0000
,
1100
0010
0001
0010
0100
0010
0001
0010
1100
0000
0000
0000
1100
0000
0000
0000
,
0011
0100
1000
0100
0010
0100
1000
0100
0011
0000
0000
0000
1000
0000
0000
0000
,
1100
0010
1001
0010
1100
0010
1001
0010
1100
0000
0000
0000
1001
0000
0000
0000
,
1100
0010
1001
0010
1100
0010
1001
0010
1100
0000
0000
0000
1001
0000
0000
0000
,
1100
0010
1001
0010
1100
0010
1001
0010
1100
0010
1001
0010
1100
0000
0000
0000
,
0001
0000
0000
0000
0011
0000
0000
0000
0111
0000
0000
0000
1111
0000
0000
0001
,
0010
0000
0000
1000
0100
0000
0000
0001
0010
0000
0000
1000
0100
0000
0000
1000
,
0010
0000
0000
0001
0100
0000
0000
1000
0010
0000
0000
0001
0100
0000
0000
0001
,
0010
0000
0000
1000
0100
0000
0000
0001
0010
0000
0000
1000
0100
0000
0000
0001
,
0010
0000
0000
0000
0000
0000
0000
0000
0000
0000
0000
0000
1000
0000
0100
0000
0010
0000
0001
0000
0000
0001
0000
0000
0010
0000
0000
0000
0000
0000
0000
0000
0000
1000
0000
0000
0100
0000
0000
0000
0000
0000
0000
0000
0000
0001
0000
0000
,
0010
0000
0000
1000
0100
0000
0000
0001
0010
0000
0000
1000
0100
0000
0000
0001
,
0100
0000
0000
1000
0010
0000
0000
0001
0100
0000
0000
1000
0010
0000
0000
0000
,
0011
0000
0000
0000
1100
0010
0001
0010
0100
1000
0100
0010
0001
0010
1100
0001
,
0010
0000
0000
1000
0100
0000
0000
0000
0001
0010
0100
0010
0001
0010
0100
0000
,
1000
0100
0000
0000
0110
0000
0000
0000
0001
0010
0000
0000
0110
0000
0000
0000
,
1000
0100
0000
0000
0110
0000
0000
0000
0001
0010
0000
0000
0110
0000
0000
0000
,
1000
0100
0000
0000
0110
0000
0000
0000
0001
0010
0000
0000
0110
0000
0000
0000
,
1100
0010
0000
0000
0011
0100
0000
0000
1100
0010
0000
0000
0011
0100
0000
0000
,
1000
0100
0000
0000
0110
0000
0000
0000
0001
0010
0000
0000
0110
0000
0000
0000
,
1000
0100
0000
0000
0011
0000
0000
0000
0001
0010
0000
0000
1100
0000
0000
0000
,
1000
0100
0000
0000
0011
0000
0000
0000
0001
0010
0000
0000
1100
0000
0000
0000
,
0101
0000
0000
0000
1010
0000
0000
0000
0100
0010
0100
0010
0100
0000
1000
0000
,
0001
0010
0000
0000
0110
0000
0000
0000
1000
0100
0000
0000
0110
0000
0000
0000
,
1000
0100
0000
0000
0110
0000
0000
0000
0001
0010
0000
0000
0110
0000
0000
0000
,
1000
0100
0000
0000
0011
0000
0000
0000
0001
0010
0000
0000
1100
0000
0000
0000
,
1100
0010
0000
0000
0011
0100
0000
0000
1100
0010
0000
0000
0011
0100
0000
0000
,
1000
0100
0000
0000
0110
0000
0000
0000
0001
0010
0000
0000
0110
0000
0000
0000
,
1000
0100
0000
0000
0011
0000
0000
0000
0001
0010
0000
0000
1100
0000
0000
0000
,
1000
0100
0000
0000
0011
0000
0000
0000
0001
0010
0000
0000
1100
0000
0000
0000
,
0002
0000
0000
0000
0000
0000
0000
0000
1003
0100
0000
0000
1010
0000
0000
0000
,
0001
0010
0000
0000
0101
0000
0000
0000
1000
0100
0000
0000
1010
0000
0000
0000
,
0001
0010
0000
0000
0101
0000
0000
0000
1000
0100
0000
0000
1010
0000
0000
0000
,
0001
0010
0000
0000
0101
0000
0000
0000
0100
0010
0000
0000
1010
0000
0000
0000
,
0002
0000
0000
0000
0000
0000
0000
0000
1003
0100
0000
0000
0110
0000
0000
0000
,
0001
0010
0000
0000
0110
0000
0000
0000
1000
0100
0000
0000
0110
0000
0000
0000
,
0001
0010
0000
0000
0110
0000
0000
0000
1000
0100
0000
0000
0110
0000
0000
0000
,
0010
0100
0010
0100
0010
0100
0010
0100
0002
0000
0000
0000
0000
0000
0000
0000
,
1003
0100
0000
0000
0011
0000
0001
0000
0010
0100
0000
0000
1100
0000
0100
0000
,
1000
0100
0000
0000
0011
0000
0001
0000
0001
0010
0000
0000
0110
0000
0100
0000
,
1000
0100
0000
0000
0110
0000
0010
0000
0001
0010
0000
0000
0110
0000
0010
0000
,
1000
0100
0000
0000
0110
0000
0010
0000
0001
0010
0000
0000
0110
0000
0010
0000
,
1000
0100
0000
0000
0110
0000
0010
0000
0001
0010
0000
0000
0110
0000
0100
0000
,
1000
0100
0000
0000
0110
0000
0010
0000
0001
0010
0000
0000
0110
0000
0010
0000
,
1000
0100
0000
0000
0110
0000
0010
0000
0001
0010
0000
0000
0110
0000
0010
0000
,
0002
0000
0000
0000
0000
0000
0000
0000
1003
0100
0000
0000
1010
0000
0100
0000
,
0001
0010
0000
0000
0101
0000
0010
0000
1000
0100
0000
0000
0101
0000
0010
0000
,
0001
0010
0000
0000
1010
0000
0100
0000
0001
0010
0000
0000
0101
0000
0010
0000
,
1000
0100
0000
0000
0101
0000
0010
0000
0001
0010
0000
0000
1010
0000
0100
0000
,
1000
0100
0000
0000
0101
0000
0010
0000
0001
0010
0000
0000
1010
0000
0100
0000
,
1000
0100
0000
0000
0101
0000
0010
0000
0001
0010
0000
0000
1010
0000
0100
0000
,
1000
0100
0000
0000
0101
0000
0010
0000
0001
0010
0000
0000
0101
0000
0010
0000
,
1000
0100
0000
0000
0101
0000
0010
0000
0100
0000
0000
0010
0100
0010
0100
0010
,
0200
0000
0320
0000
,
0200
0000
0332
0000
,
0020
0000
2033
0000
,
0200
0000
3302
0000
,
0020
0000
2033
0000
,
3001
0010
0000
0000
0110
0000
0100
0000
1000
0100
0000
0000
0110
0000
0010
0000
,
1000
0100
0000
0000
0110
0000
0010
0000
0001
0010
0000
0000
0110
0000
0100
0000
,
1000
0100
0000
0000
0110
0000
0010
0000
0100
0010
0100
0010
0100
0010
0100
0010
,
0200
0000
0000
0000
0000
0000
0000
0000
0301
0010
0000
0000
0101
0000
0000
0000
,
1000
0100
0000
0000
1010
0000
0000
0000
0001
0010
0000
0000
0101
0000
0000
0000
,
1000
0100
0000
0000
1010
0000
0000
0000
0001
0010
0000
0000
0101
0000
0000
0000
,
1000
0100
0000
0000
1010
0000
0000
0000
0001
0010
0000
0000
0101
0000
0000
0000
,
1000
0100
0000
0000
1010
0000
0000
0000
1001
0000
0000
0000
1010
0000
0000
0000
,
1000
0100
0000
0000
1010
0000
0000
0000
1001
0000
0000
0000
1010
0000
0000
0000
,
0001
0010
0000
0000
0101
0000
0000
0000
1000
0100
0000
0000
1010
0000
0000
0000
,
0100
0010
0000
0000
0101
0000
0000
0000
2000
0000
0000
0000
0000
0000
0000
0000
,
3001
0010
0000
0000
0110
0000
0100
0000
1000
0100
0000
0000
0110
0000
0100
0000
,
0001
0010
0000
0000
1100
0000
0100
0000
1000
0100
0000
0000
0110
0000
0100
0000
,
0001
0010
0000
0000
1100
0000
0100
0000
1000
0100
0000
0000
0110
0000
0010
0000
,
0001
0010
0000
0000
1100
0000
0100
0000
1000
0100
0000
0000
0110
0000
0100
0000
,
1010
0000
0000
0000
0000
0000
0011
0000
0000
0010
0000
0000
1000
0100
0000
0000
0000
0000
0110
0000
0000
0100
0000
0000
,
1001
0000
0000
0000
0000
0000
0010
0000
0000
0000
0000
0000
0001
0010
0000
0000
0000
0000
1010
0000
0000
0100
0000
0000
,
1000
0100
0000
0000
0000
0000
0101
0000
0000
0010
0000
0000
1000
0100
0000
0000
0000
0000
1010
0000
0000
0100
0000
0000
,
1010
0000
0000
0000
1000
0100
1000
0100
1000
0100
1000
0000
0010
0000
0000
0000
,
0001
0010
0000
0000
1000
0100
0000
0000
0001
0010
0000
0000
1000
0100
0000
0000
,
1000
0010
0000
0000
0001
0100
0000
0000
1000
0010
0000
0000
0001
0100
0000
0000
,
0001
0010
0000
0000
1000
0100
0000
0000
0001
0010
0000
0000
1000
0100
0000
0000
,
0001
0100
0000
0000
1000
0010
0000
0000
0001
0100
0000
0000
1000
0010
0000
0000
,
0001
0010
0000
0000
1000
0100
0000
0000
0001
0010
0000
0000
1000
0100
0000
0000
,
0001
0100
0000
0000
1000
0010
0000
0000
0001
0100
0000
0000
1000
0010
0000
0000
,
0001
0000
0000
0100
0000
0000
0000
0000
0000
0000
0000
0000
1000
0000
0000
0010
0000
0000
0000
0000
0000
0000
0000
0000
0001
0000
0010
0000
0100
0000
1000
0000
0100
0000
0010
0000
0001
0000
0100
0000
0001
0000
0100
0000
0001
0000
0100
0000
,
2000
0000
3011
0000
;
